<?xml version="1.0" standalone="no"?> 
<!DOCTYPE svg PUBLIC "-//W3C//DTD SVG 1.1//EN" "http://www.w3.org/Graphics/SVG/1.1/DTD/svg11.dtd" >
<svg xmlns="http://www.w3.org/2000/svg">
<defs>
  <font id="LOOP_icons" horiz-adv-x="4600">
    <font-face font-family="LOOP_icons"
      units-per-em="500" ascent="500"
      descent="0" />
    <missing-glyph horiz-adv-x="0" />
    <glyph glyph-name="70-years"
      unicode="&#xE001;"
      horiz-adv-x="281.226" d=" M102.151 380.654H110.325V367.033C110.367 365.784 111.219 364.567 112.835 364.522H118.609V380.654H126.784V360.274H108.693C105.023 360.315 102.109 362.502 102.151 367.033V380.654z M160.753 360.277H152.58V373.896C152.575 375.255 151.604 376.348 150.071 376.406H144.298V360.277H136.006V380.76H154.104C157.921 380.725 160.716 378.656 160.753 374.01V360.277z M204.817 380.653H213.073V360.37H204.817V380.653z M69.509 360.275H77.685V367.356H82.153C83.482 367.36 84.451 366.875 85.097 365.502L87.494 360.274H95.997C93.441 366.146 93.316 367.727 91.09 369.319C96.115 371.49 95.386 380.478 87.494 380.653H69.509V360.275zM77.793 376.405H83.026C86.757 376.229 86.757 371.736 83.026 371.7150000000001H77.793V376.405z M178.145 376.406H181.744C190.525 376.23 190.525 364.5660000000001 181.744 364.523H178.145V376.406zM169.974 360.277H185.56C200.973 360.317 200.849 380.239 185.667 380.656H169.974V360.277z M52.223 364.523V371.6090000000001H60.289V360.163H44.267C29.606 360.1960000000001 29.363 380.847 44.267 380.764H58.219V376.4070000000001H48.516C39.445 376.231 39.445 364.567 48.299 364.524H52.223z M239.764 364.523V371.6090000000001H248.05V360.2770000000001H231.917C217.221 360.1960000000001 216.977 380.846 231.917 380.7630000000001H245.87V376.406H236.282C227.183 376.23 227.183 364.5660000000001 236.059 364.523H239.764z M120.76 472.71L97.193 484.93L87.889 465.888L56.878 470.849L75.484 439.217L140.629 439.217L205.731 439.217L224.349 470.849L193.326 465.888L184.022 484.93L160.457 472.71L140.607 500.001z M141.426 67.382C141.206 67.612 140.908 67.728 140.614 67.735C140.318 67.728 140.021 67.613 139.801 67.382C139.801 67.382 138.337 66.034 138.337 65.187V41.774C138.337 40.513 139.358 39.497 140.614 39.497C141.872 39.497 142.891 40.514 142.891 41.774V65.187C142.892 66.035 141.426 67.382 141.426 67.382 M147.682 102.694C144.631 102.694 142.008 100.998 140.615 98.516C139.221 100.997 136.594 102.694 133.548 102.694C129.053 102.694 125.409 99.0510000000001 125.409 94.558C125.409 92.361 126.098 90.884 127.704 88.914C131.553 84.181 139.801 76.155 139.801 76.155C140.024 75.923 140.318 75.807 140.615 75.804C140.911 75.807 141.205 75.922 141.427 76.155C141.427 76.155 149.679 84.18 153.526 88.914C155.129 90.884 155.821 92.36 155.821 94.558C155.819 99.051 152.177 102.694 147.682 102.694 M109.687 78.836C109.687 75.785 111.384 73.162 113.866 71.769C111.385 70.375 109.687 67.749 109.687 64.702C109.687 60.206 113.331 56.563 117.825 56.563C120.022 56.563 121.497 57.253 123.469 58.858C128.202 62.706 136.228 70.955 136.228 70.955C136.46 71.182 136.576 71.474 136.58 71.769C136.576 72.065 136.461 72.359 136.228 72.581C136.228 72.581 128.203 80.83 123.469 84.68C121.497 86.282 120.023 86.974 117.825 86.974C113.33 86.974 109.687 83.33 109.687 78.836 M171.541 78.836C171.541 75.785 169.843 73.162 167.363 71.769C169.842 70.375 171.541 67.749 171.541 64.702C171.541 60.206 167.896 56.563 163.402 56.563C161.206 56.563 159.729 57.253 157.759 58.858C153.026 62.706 145 70.955 145 70.955C144.768 71.182 144.651 71.474 144.647 71.769C144.651 72.065 144.767 72.359 145 72.581C145 72.581 153.025 80.83 157.759 84.68C159.729 86.282 161.205 86.974 163.402 86.974C167.896 86.974 171.541 83.33 171.541 78.836 M-0.001 420.259V138.106H0.066C1.406 61.61 63.797 0 140.614 0S279.819 61.609 281.165 138.105H281.226V420.259H-0.001zM267.007 139.051H266.968C266.127 69.97 209.897 14.219 140.614 14.219C71.33 14.219 15.098 69.97 14.258 139.051H14.219V406.04H267.0070000000001V139.051z M194.332 320.723C164.663 320.723 140.616 296.674 140.616 267.0060000000001C140.616 237.3400000000001 164.663 213.288 194.332 213.288C223.998 213.288 248.048 237.3400000000001 248.048 267.0060000000001C248.048 296.674 223.998 320.723 194.332 320.723M194.332 229.088C173.392 229.088 156.412 246.0660000000001 156.412 267.0060000000001C156.412 287.947 173.391 304.925 194.332 304.925S232.25 287.947 232.25 267.0060000000001C232.25 246.066 215.272 229.088 194.332 229.088 M33.179 338.103L33.179 309.665L48.979 309.665L48.979 322.303L125.628 322.303L55.597 180.111L57.114 180.111L72.913 180.111L73.207 180.111L151.019 338.103z M114.629 151.52H117.277V134.056H114.629V151.52z M162.841 134.21L162.841 151.674L172.421 151.674L172.421 149.294L165.486 149.294L165.486 144.193L171.169 144.193L171.169 141.839L165.486 141.839L165.486 136.588L172.421 136.588L172.421 134.21z M53.934 134.21L53.934 151.674L63.513 151.674L63.513 149.294L56.582 149.294L56.582 144.193L62.262 144.193L62.262 141.839L56.582 141.839L56.582 134.208z M198.989 134.21L198.989 151.674L208.568 151.674L208.568 149.294L201.641 149.294L201.641 144.193L207.318 144.193L207.318 141.839L201.641 141.839L201.641 136.588L208.568 136.588L208.568 134.21z M104.541 134.056L98.368 145.715L98.368 134.056L95.719 134.056L95.719 151.52L98.146 151.52L104.32 139.887L104.32 151.52L106.969 151.52L106.969 134.056z M188.902 134.056L182.728 145.715L182.728 134.056L180.08 134.056L180.08 151.52L182.508 151.52L188.68 139.887L188.68 151.52L191.329 151.52L191.329 134.056z M223.006 180.145L219.762 188.162C221.333 188.872 222.468 190.35 222.468 192.508C222.468 195.471 220.364 197.603 217.06 197.61H217.047H211.667V180.146H215.135V187.505H216.42L219.398 180.146H223.006zM215.137 194.802H216.916C218.157 194.802 218.997 193.9310000000001 218.997 192.4860000000001C218.997 191.0380000000001 218.157 190.189 216.916 190.189H215.137V194.802z M196.999 180.148H200.476L195.88 197.6110000000001H192.403L187.804 180.148H191.281L192.085 183.21H196.193L196.999 180.148zM192.858 186.132L194.14 191.011L195.422 186.132H192.858z M136.814 135.117L135.055 136.874C135.418 137.595 135.643 138.398 135.643 139.263C135.643 139.276 135.638 139.2910000000001 135.638 139.304H135.643V143.5V146.296V146.314V146.316C135.643 149.273 133.247 151.668 130.29 151.668S124.937 149.273 124.937 146.316V146.314V139.303H124.941C124.941 139.29 124.937 139.2749999999999 124.937 139.262C124.937 136.305 127.333 133.91 130.29 133.91C131.489 133.91 132.585 134.317 133.477 134.983L135.081 133.379L136.814 135.117zM130.291 136.089C128.73 136.089 127.466 137.481 127.466 139.198V146.379C127.466 148.095 128.731 149.487 130.291 149.487S133.116 148.094 133.116 146.379V139.198C133.116 139.076 133.095 138.961 133.082 138.844L131.744 140.183L130.01 138.452L131.852 136.61C131.403 136.282 130.869 136.089 130.291 136.089 M85.531 151.52V139.168C85.486 137.477 84.237 136.117 82.706 136.117C81.172 136.117 79.924 137.476 79.881 139.168V151.52H77.354V139.214H77.358C77.383 136.278 79.766 133.908 82.707 133.908C85.648 133.908 88.029 136.278 88.056 139.214H88.061V151.52H85.531z M152.651 151.52V139.168C152.608 137.477 151.358 136.117 149.828 136.117C148.293 136.117 147.046 137.476 147.004 139.168V151.52H144.475V139.214H144.479C144.505 136.278 146.887 133.908 149.829 133.908S155.15 136.278 155.179 139.214H155.183V151.52H152.651z M167.034 180.145L167.034 197.609L176.614 197.609L176.614 194.597L170.315 194.597L170.315 190.444L175.364 190.444L175.364 187.458L170.315 187.458L170.315 183.159L176.614 183.159L176.614 180.145z M152.369 197.609L149.508 190.561L149.512 190.552L149.504 190.552L149.508 190.561L146.649 197.609L143.172 197.609L147.866 187.313L147.868 187.313L147.868 180.173L151.149 180.173L151.149 187.313L155.844 197.609z M245.078 192.403L245.078 192.403C245.078 195.36 242.681 197.757 239.724 197.757C236.769 197.757 234.374 195.361 234.374 192.403V192.281H234.367C234.369 192.26 234.372 192.24 234.374 192.219V192.198H234.376C234.452 191.374 234.67 190.653 235.038 190.058C235.511 189.296 236.398 188.698 237.751 188.245L239.867 187.535C240.237 187.4040000000001 240.513 187.2940000000001 240.7210000000001 187.191C240.904 187.0990000000001 241.0430000000001 186.9860000000001 241.1450000000001 186.847C241.2440000000001 186.7140000000001 241.3060000000001 186.525 241.3390000000001 186.283C241.3760000000001 186.017 241.415 184.829 241.415 184.804C241.415 183.773 240.579 182.936 239.5470000000001 182.936C238.5200000000001 182.936 237.693 183.764 237.6790000000001 184.787H237.677V185.4880000000001H234.1960000000001V185.3940000000001H234.2C234.2 185.3790000000001 234.1960000000001 185.3640000000001 234.1960000000001 185.3490000000001C234.1960000000001 182.3940000000001 236.593 180.001 239.551 180.001C242.439 180.001 244.79 182.285 244.897 185.15C244.8990000000001 185.182 244.901 185.2190000000001 244.901 185.254V185.334V185.348V185.354C244.901 185.368 244.899 185.38 244.899 185.393H244.901V185.487H244.899C244.89 186.027 244.853 186.521 244.782 186.951C244.701 187.467 244.536 187.932 244.296 188.333C244.057 188.738 243.711 189.096 243.2740000000001 189.395C242.8420000000001 189.687 242.283 189.944 241.606 190.153L239.3410000000001 190.889C238.9780000000001 191.008 238.6860000000001 191.13 238.4770000000001 191.247C238.2920000000001 191.351 238.1510000000001 191.472 238.0610000000001 191.606C237.9720000000001 191.733 237.8910000000001 191.891 237.8700000000001 192.072C237.8610000000001 192.132 237.8570000000001 192.196 237.8540000000001 192.266L237.8610000000001 193.01C237.8810000000001 194.03 238.7020000000001 194.848 239.7220000000001 194.848C240.7560000000001 194.848 241.5920000000001 194.012 241.5920000000001 192.978C241.5920000000001 192.957 241.5970000000001 192.196 241.5970000000001 192.196H245.0780000000001V192.382V192.403z M47.041 146.362C47.015 149.297 44.634 151.666 41.693 151.666C38.753 151.666 36.37 149.297 36.344 146.362H36.34V139.2120000000001H36.344C36.369 136.2790000000001 38.752 133.9060000000001 41.693 133.9060000000001C44.634 133.9060000000001 47.015 136.2790000000001 47.041 139.2120000000001H47.045V146.362H47.041zM44.517 139.17C44.473 137.477 43.224 136.12 41.692 136.12C40.158 136.12 38.909 137.476 38.867 139.17V146.405C38.909 148.096 40.158 149.4550000000001 41.692 149.4550000000001C43.223 149.4550000000001 44.472 148.097 44.517 146.405V139.17z M234.479 138.892C234.594 136.122 236.884 133.906 239.68 133.906C242.492 133.906 244.779 136.11 244.883 138.919V138.939C244.886 138.964 244.888 138.991 244.888 139.015L244.886 139.252C244.877 139.809 244.835 140.303 244.766 140.724C244.69 141.213 244.536 141.656 244.309 142.033C244.084 142.409 243.764 142.745 243.351 143.025C242.933 143.3130000000001 242.38 143.5580000000001 241.713 143.7670000000001L239.354 144.5360000000001C238.947 144.667 238.62 144.8050000000001 238.382 144.9370000000001C238.139 145.0790000000001 237.951 145.2400000000001 237.827 145.4220000000001C237.681 145.6260000000001 237.596 145.8490000000001 237.567 146.0720000000001C237.519 146.4490000000001 237.556 147.0950000000001 237.556 147.0950000000001C237.578 148.3520000000001 238.613 149.3700000000001 239.862 149.3700000000001C241.133 149.3700000000001 242.336 147.8860000000001 242.336 146.609H245.068C244.987 149.4090000000001 242.684 151.665 239.864 151.665C237.002 151.665 234.672 149.347 234.657 146.487V146.4550000000001V146.287L234.659 146.2810000000001C234.73 145.4690000000001 234.946 144.7710000000001 235.297 144.2080000000001C235.741 143.4850000000001 236.604 142.9170000000001 237.925 142.4750000000001L240.13 141.7350000000001C240.528 141.5960000000001 240.831 141.4720000000001 241.0650000000001 141.3540000000001C241.3090000000001 141.2350000000001 241.4940000000001 141.0840000000001 241.6370000000001 140.8880000000001C241.7750000000001 140.7000000000001 241.8660000000001 140.4520000000001 241.908 140.1330000000001C241.954 139.8300000000001 241.99 138.5560000000001 241.99 138.5450000000001C241.99 137.2720000000001 240.952 136.2330000000001 239.678 136.2330000000001C238.539 136.2330000000001 237.64 137.0460000000001 237.403 138.162C237.297 138.665 237.288 138.891 237.288 138.891H234.479z M216.228 138.892C216.346 136.122 218.634 133.906 221.43 133.906C224.244 133.906 226.529 136.11 226.633 138.919V138.939C226.635 138.964 226.637 138.991 226.637 139.015L226.635 139.252C226.626 139.809 226.585 140.303 226.518 140.724C226.44 141.213 226.287 141.656 226.058 142.033C225.838 142.409 225.514 142.745 225.103 143.025C224.682 143.3130000000001 224.129 143.5580000000001 223.463 143.7670000000001L221.103 144.5360000000001C220.696 144.667 220.372 144.8050000000001 220.132 144.9370000000001C219.89 145.0790000000001 219.703 145.2400000000001 219.576 145.4220000000001C219.43 145.6260000000001 219.347 145.8490000000001 219.319 146.0720000000001C219.271 146.4490000000001 219.306 147.0950000000001 219.306 147.0950000000001C219.329 148.3520000000001 220.364 149.3700000000001 221.612 149.3700000000001C222.885 149.3700000000001 224.088 147.8860000000001 224.088 146.609H226.817C226.737 149.4090000000001 224.435 151.665 221.614 151.665C218.751 151.665 216.422 149.347 216.406 146.487V146.4550000000001V146.287L216.408 146.2810000000001C216.482 145.4690000000001 216.696 144.7710000000001 217.047 144.2080000000001C217.493 143.4850000000001 218.353 142.9170000000001 219.675 142.4750000000001L221.88 141.7350000000001C222.278 141.5960000000001 222.585 141.4720000000001 222.814 141.3540000000001C223.058 141.2350000000001 223.246 141.0840000000001 223.387 140.8880000000001C223.5260000000001 140.7000000000001 223.6160000000001 140.4520000000001 223.6570000000001 140.1330000000001C223.703 139.8300000000001 223.7400000000001 138.5560000000001 223.7400000000001 138.5450000000001C223.7400000000001 137.2720000000001 222.704 136.2330000000001 221.428 136.2330000000001C220.292 136.2330000000001 219.391 137.0460000000001 219.154 138.162C219.05 138.665 219.038 138.891 219.038 138.891H216.228z" />
    <glyph glyph-name="arrow-left"
      unicode="&#xE002;"
      horiz-adv-x="711.536" d=" M250 500L0 250.006L250 0L298.286 51.139L130.73 221.536L711.536 221.536L711.536 289.536L130.73 289.536L298.286 454.397z" />
    <glyph glyph-name="arrow-right"
      unicode="&#xE003;"
      horiz-adv-x="711.536" d=" M461.536 0.001L711.536 249.995L461.536 500.001L413.25 448.897L580.806 278.536L-0.464 278.536L-0.464 210.536L580.806 210.536L413.25 45.64z" />
    <glyph glyph-name="arrow-tiny-down"
      unicode="&#xE004;"
      horiz-adv-x="800" d=" M99.9 500L0 400.2L400.2 0L800.3 400.2L700.5 500L400.2 199.7z" />
    <glyph glyph-name="arrow-tiny-right"
      unicode="&#xE005;"
      horiz-adv-x="313" d=" M0 437.6L62.4 500L312.4 250L62.4 0L0 62.4L187.6 250z" />
    <glyph glyph-name="arrow-tiny-up"
      unicode="&#xE006;"
      horiz-adv-x="800" d=" M99.9 0L0 99.8L400.2 500L800.3 99.8L700.5 0L400.2 300.3z" />
    <glyph glyph-name="arrow-up"
      unicode="&#xE007;"
      horiz-adv-x="346" d=" M346.1 326.9L173.1 500L0 326.9L33.4 293.5L149.4 409.5L149.4 0L196.7 0L196.7 409.5L312.7 293.5z" />
    <glyph glyph-name="award"
      unicode="&#xE008;"
      horiz-adv-x="497" d=" M494.4 87.1L425.5 206C440.8 234.2 449.4 266.4 449.4 300.6C449.4 410.5 360 500 250 500C140.1 500 50.6 410.5 50.6 300.6C50.6 267.6 58.8 236.6 73 209.2L2.3 87.1C-1.1 81.3 -0.8 74 3.1 68.5C6.9 63 13.6 60.2 20.2 61.3L83.9 72.1L106 11.4C108.3 5.1 114 0.7 120.6 0.1C121.1 0.1 121.7 0 122.2 0C128.3 0 134 3.2 137.1 8.5L196.8 108.6C213.8 103.9 231.6 101.2000000000001 250 101.2000000000001C267.4 101.2000000000001 284.1 103.7000000000001 300.2 107.9L359.6 8.5C362.7 3.2 368.4 0.1 374.5 0.1C375 0.1 375.6 0.1 376.1 0.2C382.8 0.9 388.4 5.3000000000001 390.7 11.5000000000001L412.8 72.2000000000001L476.5 61.4C483.2 60.3 489.8 63.1 493.6 68.6C497.5 74 497.8 81.3 494.4 87.1zM126 57.6L111.5 97.5C108.6 105.4 100.6 110.2 92.3 108.6L50.7 101.6L94 176.5C112.7 153.1 136.5 134.1 163.7 121L126 57.6zM85.2 300.6C85.2 391.4 159.1 465.3 250 465.3C340.8 465.3 414.7 391.4 414.7 300.6C414.7 209.7 340.8 135.8 250 135.8C159.2 135.8 85.2 209.8 85.2 300.6zM404.4 108.7C396.1 110.3 388.1 105.4 385.2 97.5L370.6 57.5L333.4 119.7C360.9 132.4 385 151 404 174L445.9 101.6L404.4 108.7z" />
    <glyph glyph-name="bookmark-filled"
      unicode="&#xE009;"
      horiz-adv-x="325.173" d=" M302.445 0C296.542 0 290.726 2.309 286.377 6.658L162.575 130.46L38.785 6.658C32.27 0.155 22.494 -1.798 14.015 1.73C5.526 5.238 -0.012 13.539 -0.012 22.726V477.272C-0.012 489.824 10.165 500 22.716 500H302.445C315.007 500 325.173 489.824 325.173 477.272V22.726C325.173 13.538 319.647 5.238 311.146 1.73C308.327 0.555 305.375 0 302.445 0z" />
    <glyph glyph-name="bookmark"
      unicode="&#xE00A;"
      horiz-adv-x="325.173" d=" M302.445 0C296.542 0 290.726 2.309 286.377 6.658L162.575 130.46L38.785 6.658C32.27 0.155 22.494 -1.798 14.015 1.73C5.526 5.238 -0.012 13.539 -0.012 22.726V477.272C-0.012 489.824 10.165 500 22.716 500H302.445C315.007 500 325.173 489.824 325.173 477.272V22.726C325.173 13.538 319.647 5.238 311.146 1.73C308.327 0.555 305.375 0 302.445 0zM162.575 185.324C168.6 185.324 174.383 182.928 178.643 178.666L279.717 77.592V454.545H45.443V77.592L146.505 178.6660000000001C150.768 182.928 156.549 185.324 162.575 185.324z" />
    <glyph glyph-name="check"
      unicode="&#xE00B;"
      horiz-adv-x="667" d=" M194.4 0C180.2 0 165.9 5.4 155.1 16.3L16.3 155.2C-5.4 176.9 -5.4 212.1 16.3 233.8C38 255.5 73.2 255.5 94.9 233.8L195.8 132.9L573.2 485C595.8000000000001 506 630.8000000000001 504.7 651.8000000000001 482.3C672.7 459.9 671.5000000000001 424.7 649.1 403.8L232.3 14.9C221.6 4.9 208 0 194.4 0z" />
    <glyph glyph-name="chevron-down"
      unicode="&#xE00C;"
      horiz-adv-x="500" d=" M482.164 310.607C464.946 293.132 283.78 122.266 283.78 122.266C274.594 112.881 262.586 108.269 250.538 108.269C238.449 108.269 226.44 112.881 217.255 122.266C217.255 122.266 36.09 293.1320000000001 18.872 310.6080000000001C1.654 328.0850000000001 0.501 359.4780000000001 18.872 378.187C37.243 396.817 62.891 398.3280000000001 85.437 378.1670000000001L250.538 221.437L415.599 378.1670000000001C438.145 398.327 463.793 396.8160000000001 482.164 378.187C500.535 359.478 499.382 328.084 482.164 310.607z" />
    <glyph glyph-name="close-invert"
      unicode="&#xE00D;"
      horiz-adv-x="500" d=" M484.603 84.772C502.089 66.922 503.269 34.866 484.603 15.793C465.936 -3.236 439.93 -4.737 417.043 15.793L249.465 175.742L81.89 15.794C59.005 -4.736 32.958 -3.235 14.293 15.794C-4.372 34.866 -3.156 66.92 14.293 84.773C27.52 98.248 135.677 201.023 187.755 250.465C134.986 300.271 27.563 401.8110000000001 14.375 415.201C-3.193 433.054 -4.37 465.13 14.375 484.222C33.121 503.251 59.293 504.731 82.299 484.162L250.768 324.232L419.1960000000001 484.162C442.204 504.734 468.38 503.252 487.125 484.223C505.87 465.131 504.693 433.055 487.125 415.202C473.816 401.69 364.664 298.546 312.443 249.227C365.027 199.321 471.496 98.123 484.603 84.772z" />
    <glyph glyph-name="close"
      unicode="&#xE00E;"
      horiz-adv-x="500" d=" M250.5 495C115.192 495 5.5 385.307 5.5 250C5.5 114.692 115.192 5 250.5 5S495.5 114.692 495.5 250C495.5 385.307 385.808 495 250.5 495zM331.861 192.69C337.927 186.498 338.336 175.379 331.861 168.764C325.387 162.163 316.366 161.643 308.428 168.764L250.302 224.243L192.177 168.764C184.239 161.643 175.204 162.163 168.73 168.764C162.256 175.379 162.678 186.497 168.73 192.69C173.318 197.363 210.833 233.012 228.897 250.161C210.594 267.437 173.333 302.6570000000001 168.759 307.302C162.665 313.4940000000001 162.257 324.62 168.759 331.242C175.261 337.843 184.339 338.356 192.319 331.221L250.754 275.748L309.175 331.221C317.1550000000001 338.357 326.2340000000001 337.843 332.736 331.242C339.238 324.62 338.83 313.4940000000001 332.736 307.302C328.12 302.615 290.26 266.839 272.147 249.732C290.386 232.4220000000001 327.315 197.321 331.861 192.69z" />
    <glyph glyph-name="compare"
      unicode="&#xE00F;"
      horiz-adv-x="500" d=" M475.8 382.2H382.2000000000001V475.8C382.2 489.2 371.4 500 358 500H24.2C10.8 500 0 489.2 0 475.8V142C0 128.6 10.8 117.8 24.2 117.8H117.8V24.2C117.8 10.8000000000001 128.6 1e-13 142 1e-13H475.8C489.2 1e-13 500 10.8000000000001 500 24.2V358C500 371.3 489.2 382.2 475.8 382.2zM48.4 166.2V451.6H333.8V382.2H142C128.6 382.2 117.8 371.4 117.8 358V166.2H48.4zM451.6 48.4H166.2V333.8H451.6V48.4z" />
    <glyph glyph-name="dot"
      unicode="&#xE010;"
      horiz-adv-x="500" d=" M215.076 463.255C215.268 482.078 230.123 499.781 250.17 499.998C270.194 500.191 286.537 487.139 287.789 464.013V285.485H464.091C487.153 284.2290000000001 500.193 269.557 499.998 249.477C499.782 229.376 482.109 212.95 463.357 212.734C449.173 212.602 287.789 212.734 287.789 212.734S287.897 50.925 287.789 36.768C287.639 17.9 271.225 0.186 251.127 0.002C231.06 -0.1490000000001 216.371 13.0029999999999 215.076 36.216V212.733H36.117C12.967 214.031 -0.15 231.526 0.001 251.65C0.185 271.805 17.849 285.332 36.664 285.485C50.911 285.591 215.076 285.485 215.076 285.485S214.946 449.162 215.076 463.255z" />
    <glyph glyph-name="download"
      unicode="&#xE011;"
      horiz-adv-x="429" d=" M379.2 248.7L214.5 83.9L49.8 248.7L81.6 280.5L192 170.1V500H237V170.1L347.4 280.6L379.2 248.7zM429 93.1H384V45H45V93.1H0V0H429V93.1z" />
    <glyph glyph-name="dvd"
      unicode="&#xE012;"
      horiz-adv-x="500" d=" M250 175.5C208.9 175.5 175.5 208.9 175.5 250C175.5 291.1 208.9 324.5 250 324.5C291.1 324.5 324.5 291.1 324.5 250C324.5 208.9 291.1 175.5 250 175.5M250 345.5C197.3 345.5 154.5 302.7 154.5 250C154.5 197.3 197.3 154.5 250 154.5C302.6 154.5 345.5 197.3 345.5 250C345.5 302.6 302.6 345.5 250 345.5M250 237.3C243 237.3 237.3 243 237.3 250C237.3 257 243 262.7 250 262.7C257 262.7 262.7 257 262.7 250C262.7 243 257 237.3 250 237.3M250 283.7C231.4 283.7 216.3 268.6 216.3 250C216.3 231.4 231.4 216.3 250 216.3C268.6 216.3 283.7 231.4000000000001 283.7 250C283.7 268.6 268.6 283.7 250 283.7M250 21C123.7 21 21 123.7 21 250C21 376.3 123.7 479 250 479C376.3 479 479 376.3 479 250C479 123.7 376.3 21 250 21M250 500C112.2 500 0 387.8 0 250C0 112.2 112.2 0 250 0C387.8 0 500 112.2 500 250C500 387.8 387.8 500 250 500" />
    <glyph glyph-name="fax"
      unicode="&#xE013;"
      horiz-adv-x="574.196" d=" M280.528 66.015C263.6670000000001 66.015 250.187 70.598 241.534 79.243C239.461 81.316 237.23 83.426 234.938 85.603C220.413 99.423 202.323 116.607 203.298 140.099C203.969 156.253 213.485 171.486 232.393 186.682C254.239 204.231 271.649 212.405 287.185 212.405C307.052 212.405 319.653 199.6130000000001 331.834 187.2580000000001L335.546 183.511C340.53 183.929 358.254 187.049 405.726 234.521C461.598 290.419 456.806 304.64 456.753 304.771L453.076 308.3780000000001C427.945 333.1070000000001 412.016 356.1380000000001 453.598 407.862C469.352 427.459 485.1589999999999 436.992 501.924 436.992C524.475 436.992 541.1179999999999 419.4600000000001 554.502 405.37C556.6809999999999 403.06 558.824 400.804 560.915 398.713C578.029 381.625 578.622 347.355 562.5709999999999 304.692C545.9449999999999 260.5560000000001 513.2169999999999 212.667 470.3969999999999 169.847C393.754 93.219 320.211 66.015 280.528 66.015zM287.186 185.636C278.325 185.636 265.533 178.961 249.16 165.804C236.804 155.888 230.373 146.8610000000001 230.051 138.983C229.572 127.638 242.224 115.613 253.378 105.017C255.835 102.682 258.232 100.399 260.462 98.168C263.878 94.752 271.197 92.783 280.529 92.783C317.824 92.783 385.163 122.462 451.4739999999999 188.7720000000001C491.6619999999999 228.9600000000001 522.2109999999999 273.4780000000001 537.5129999999999 314.1190000000001C550.7049999999999 349.1400000000001 549.084 372.701 541.992 379.776C539.7439999999999 382.0420000000001 537.443 384.456 535.091 386.93C524.722 397.848 512.976 410.2220000000001 501.927 410.2220000000001C493.91 410.2220000000001 484.674 403.783 474.479 391.086C444.7480000000001 354.1230000000001 452.1370000000001 346.8640000000001 471.847 327.4500000000001L475.7160000000001 323.6420000000001C500.8990000000001 298.3290000000001 461.6530000000001 252.608 424.6540000000001 215.5920000000001C371.8140000000001 162.7520000000001 349.0190000000001 156.653 336.4550000000001 156.653C328.665 156.653 321.8150000000001 159.389 316.6220000000001 164.583L312.7710000000001 168.4690000000001C301.964 179.432 295.4460000000001 185.636 287.186 185.636z M180.957 227.358L75.67 227.358L75.67 500L395.566 500L395.566 283.482L368.798 283.482L368.798 473.232L102.438 473.232L102.438 254.125L180.957 254.125z M133.764 421.01H309.3010000000001V394.241H133.7640000000001V421.01z M133.764 355.509H228.168V328.741H133.764V355.509z M477.771 0L0 0L0 254.109L347.118 254.109L347.118 227.34L26.769 227.34L26.769 26.768L451.003 26.768L451.003 141.04L477.771 141.04z" />
    <glyph glyph-name="filter"
      unicode="&#xE014;"
      horiz-adv-x="719.655" d=" M691.241 126.727H607.442C595.449 170.289 556.645 200.375 511.726 200.375S428.011 170.289 416.01 126.727H28.376C12.199 126.727 0 115.32 0 100.219C-0.015 93.11 2.45 86.805 7.138 81.985C12.367 76.61 19.91 73.641 28.376 73.641H416.056C428.049 30.078 466.853 0 511.772 0C556.652 0 595.434 30.078 607.442 73.641H691.241C707.41 73.641 719.609 85.055 719.609 100.149C719.6310000000001 107.258 717.166 113.579 712.486 118.399C707.257 123.773 699.715 126.727 691.241 126.727zM556.026 100.375C555.255 74.813 535.803 54.82 511.7719999999999 54.82C487.3579999999999 54.82 467.5099999999999 75.164 467.5099999999999 100.211C467.5099999999999 125.227 487.3589999999999 145.594 511.7719999999999 145.594C536.177 145.594 556.026 125.227 556.026 100.375z M28.376 373.273H112.168C124.161 329.726 162.972 299.648 207.884 299.648C252.803 299.648 291.6070000000001 329.726 303.6070000000001 373.273H691.28C707.449 373.273 719.655 384.679 719.655 399.804C719.655 415.202 707.6999999999999 426.374 691.241 426.374H304.385C292.384 469.938 253.588 500 208.669 500C164.048 500 124.114 469.281 112.175 426.375H28.376C12.199 426.375 0 414.969 0 399.844C0 384.461 11.932 373.273 28.376 373.273zM164.445 400.688C164.445 425.649 183.507 445.1960000000001 207.845 445.1960000000001C232.251 445.1960000000001 252.107 424.829 252.107 399.805C252.107 374.352 232.663 354.414 207.845 354.414C183.507 354.414 164.445 374.75 164.445 400.688z" />
    <glyph glyph-name="icon-nav-burger"
      unicode="&#xE015;"
      horiz-adv-x="913" d=" M913 434.8H0V500H913V434.8zM913 282.6H0V217.4H913V282.6zM913 65.2H0V0H913V65.2z" />
    <glyph glyph-name="icon-nav-close"
      unicode="&#xE016;"
      horiz-adv-x="500" d=" M500 457.1L457.1 500L250 292.9L42.9 500L0 457.1L207.1 250L0 42.9L42.9 0L250 207.1L457.1 0L500 42.9L292.9 250z" />
    <glyph glyph-name="icon-search"
      unicode="&#xE017;"
      horiz-adv-x="500" d=" M499.984 24.232L332.93 191.286C360.178 223.955 376.6 265.95 376.6 311.7C376.6 415.5 292.1 500 188.3 500S0 415.5 0 311.7S84.5 123.4 188.3 123.4C234.067 123.4 276.076 139.835 308.75 167.101L475.801 0.05L499.984 24.232zM34.2 311.7C34.2 396.7 103.3 465.8 188.3 465.8S342.4 396.6 342.4 311.7C342.4 226.7 273.3 157.599 188.3 157.599S34.2 226.7 34.2 311.7z" />
    <glyph glyph-name="location"
      unicode="&#xE018;"
      horiz-adv-x="347" d=" M173.6 0L161.6 16.1C155 25 0 235 0 326.4C0 422.1 77.9 500 173.6 500C269.3 500 347.2 422.1 347.2 326.4C347.2 234.9 192.2 24.9 185.6 16L173.6 0zM173.6 470.2C94.3 470.2 29.8 405.7 29.8 326.4C29.8 264.1 124.5 118.8 173.6 50.2C222.6 118.8 317.4 264.1 317.4 326.4C317.4 405.7 252.9 470.2 173.6 470.2zM173.6 248.1C130.4 248.1 95.2 283.2 95.2 326.4C95.2 369.6 130.3 404.8 173.6 404.8C216.8 404.8 252 369.7 252 326.4C251.9 283.3 216.7 248.1 173.6 248.1zM173.6 375C146.8 375 125 353.2 125 326.4C125 299.6 146.8 277.8 173.6 277.8C200.4 277.8 222.2 299.6 222.2 326.4C222.2 353.2 200.3 375 173.6 375z" />
    <glyph glyph-name="logo-grundig-claim"
      unicode="&#xE019;"
      horiz-adv-x="2275" d=" M934.3 52.4H864.9C845.5 52.9 835.3 67.5 834.8 82.5V245.9H736.5999999999999V82.4C736.0999999999999 28 771.0999999999999 1.8 815.1999999999999 1.3H1032.5V245.9H934.3V52.4zM1307.4 247.2H1090V1.4H1189.6V195H1259C1277.4 194.3 1289.1 181.2 1289.1 164.9V1.4H1387.3V166.2C1386.9 222 1353.3 246.8 1307.4 247.2zM1812.1 2.6H1911.3V245.9H1812.1V2.6zM643.7 109.9C704.1 135.9 695.3000000000001 243.8 600.5 245.9H384.5V1.3H482.7V86.3H536.4C552.3 86.3 564 80.4999999999999 571.8 64.1L600.5999999999999 1.3H702.6999999999999C671.9 71.8 670.4 90.8 643.7 109.9zM546.8 138.7H484V195H546.9C591.7 192.8 591.7 138.9 546.8 138.7zM1633.4 245.9H1444.9V1.3H1632.1000000000001C1817.2 1.9 1815.7 241 1633.4 245.9zM1586.2 52.4H1543V195H1586.2C1691.7 192.8 1691.7 52.9 1586.2 52.4zM228.7 52.4H181.6C75.3 52.9 75.3 192.9 184.2 195H300.7V247.3H133.2C-45.8 248.3 -42.9 0.5 133.2 0.1H325.6V137.4H228.7V52.4zM2174.7 137.4V52.4H2130.2C2023.6 52.9 2023.6 192.9 2132.7999999999997 195H2248V247.3H2080.4C1901 248.3 1903.9 0.5 2080.4 1.5H2274.1V137.5H2174.7zM38.8 413.1H105.9V427.7H38.8V484.1H117.6V498.7H22.4V345.6H38.8V413.1zM183 344.3C198.3 344.3 211.8 349.9 222.2 360.2000000000001C236.6 374.6 236.6 389.6 236.6 422.1S236.6 469.6 222.2 484C211.9 494.4 198.3 500 183 500C167.7 500 154.2 494.4 143.8 484.1C129.4 469.7 129.4 454.6 129.4 422.2S129.4 374.7 143.8 360.3C154.2 349.9 167.7 344.3 183 344.3zM156.6 474.4C163.3 481.3 173 485.4 183.1 485.4S202.9 481.3 209.6 474.4C219.3 464.5 220.4 454.2 220.4 422.2C220.4 390.2 219.3 379.9 209.6 370C202.9 363.1 193.2 359 183.1 359S163.3 363.1 156.6 370C146.9 379.9 145.8 390.2 145.8 422.2C145.8 454.2 146.9 464.5 156.6 474.4zM367.1 456.1C367.1 482.5 348.4000000000001 498.7 321.7000000000001 498.7H263V345.6H279.4V413.6H316.2L351.1 345.7H370.3L333.9 415.1C353.6 419.2 367.1 433.8 367.1 456.1zM279.4 428V484.1H320.3C338.2 484.1 350.8 474.6 350.8 455.9S338.1 428 320.2 428H279.4zM447.9 380.2H514.8L527.0999999999999 345.6H544.4999999999999L488.3 498.7H474.5L418.1 345.6H435.5L447.9 380.2zM481.7 475.3L510.1 394.4H452.9L481.7 475.3zM650.6 411.4H688.2V399.8C688.2 388 685.8000000000001 379.6 679.6 372C672.5 363.4 661.7 358.9 650.5 358.9C640.4 358.9 630.7 362.8 624 369.7000000000001C614.3 379.6 613.2 390.1 613.2 422.2000000000001C613.2 454.2 614.3000000000001 464.6 624 474.4C630.7 481.3 640.4 485.4 650.5 485.4C669.7 485.4 683.4 473.5 687.7 454.2H704C699.7 481.1 679.9 500 650.6 500C635.3000000000001 500 621.8000000000001 494.4 611.4 484.1C597 469.7 597 454.6 597 422.2C597 389.7 597 374.7 611.4 360.3C621.6999999999999 350 635.5 344.4 650.6 344.4C666.3000000000001 344.4 680.7 350.4 691.5 362C701 372.1 704.6 383.9 704.6 401.6V425.8H650.6V411.4zM780 344.3C795.3 344.3 808.8 349.9 819.1 360.2000000000001C833.5 374.6 833.5 389.6 833.5 422.1S833.5 469.6 819.1 484C808.8 494.4 795.2 500 780 500C764.7 500 751.2 494.4 740.8 484.1C726.4 469.7 726.4 454.6 726.4 422.2S726.4 374.7 740.8 360.3C751.1 349.9 764.6 344.3 780 344.3zM753.5 474.4C760.2 481.3 769.8 485.4 780 485.4C790.1 485.4 799.8 481.3 806.4 474.4C816.1 464.5 817.1999999999999 454.2 817.1999999999999 422.2C817.1999999999999 390.2 816.0999999999999 379.9 806.4 370C799.6999999999999 363.1 790.1 359 780 359C769.9 359 760.2 363.1 753.5 370C743.8 379.9 742.7 390.2 742.7 422.2C742.7 454.2 743.8 464.5 753.5 474.4zM909 344.3C924.3 344.3 937.8 349.9 948.2 360.2000000000001C962.6 374.6 962.6 389.6 962.6 422.1S962.6 469.6 948.2 484C937.8 494.4 924.3 500 909 500C893.7 500 880.2 494.4 869.8 484.1C855.4 469.7 855.4 454.6 855.4 422.2S855.4 374.7 869.8 360.3C880.2 349.9 893.7 344.3 909 344.3zM882.6 474.4C889.3000000000001 481.3 899 485.4 909.1 485.4C919.2 485.4 928.9 481.3 935.6 474.4C945.3 464.5 946.4 454.2 946.4 422.2C946.4 390.2 945.3 379.9 935.6 370C928.9 363.1 919.2 359 909.1 359C899 359 889.3000000000001 363.1 882.6 370C872.9 379.9 871.8000000000001 390.2 871.8000000000001 422.2C871.8 454.2 872.9 464.5 882.6 474.4zM1095.3 423.9C1095.3 445.2 1096.2 468.6 1080.2 484.5C1070.9 493.7 1057.4 498.7 1041.5 498.7H989V345.6H1041.5C1057.4 345.6 1071 350.5 1080.2 359.8C1096.2 375.7 1095.3 402.6 1095.3 423.9zM1068.8 371.4C1060.8 363.2000000000001 1050.5 360.2000000000001 1038.7 360.2000000000001H1005.4V484.1H1038.7C1050.6000000000001 484.1 1060.9 481.1 1068.8 472.9C1079.3999999999999 461.9 1078.8999999999999 442.6 1078.8999999999999 423.9C1078.9 405.2 1079.4 382.4 1068.8 371.4zM1183 413.6H1219.8L1254.7 345.7H1273.9L1237.5 415.1C1257.3 419.2 1270.8 433.8 1270.8 456.2C1270.8 482.6 1252.1 498.8 1225.3999999999999 498.8H1166.6999999999998V345.7H1182.9999999999998V413.6zM1183 484.1H1223.9C1241.8000000000002 484.1 1254.5 474.6 1254.5 455.9S1241.8 428 1223.9 428H1183V484.1zM1296.4 345.6H1391.5V360.2H1312.8V415.5H1379.8999999999999V430.1H1312.8V484.1H1391.5V498.7H1296.4V345.6zM1513.1 345.6H1530.5L1474.4 498.7H1460.6000000000001L1404.2 345.6H1421.6000000000001L1433.9 380.2H1500.8000000000002L1513.1 345.6zM1438.9 394.4L1467.7 475.3L1496.1000000000001 394.4H1438.9zM1592.1 359C1574.8999999999999 359 1563.1 363.1 1550.3999999999999 375.8L1539.1999999999998 364.6C1553.6 350.2 1568.6999999999998 344.4 1591.6999999999998 344.4C1623.4999999999998 344.4 1644.6 361 1644.6 387.8C1644.6 400.5 1640.1 411 1631.6999999999998 418.1C1625.2999999999997 423.7 1618.1999999999998 426.7 1603.6999999999998 428.8L1586.8999999999999 431.4C1578.8999999999999 432.7 1570.9999999999998 435.7 1566.1999999999998 439.8C1561.3999999999999 443.9 1559.2999999999997 449.9 1559.2999999999997 457.4C1559.2999999999997 474.4 1571.0999999999997 485.8 1591.5999999999997 485.8C1607.6999999999996 485.8 1617.7999999999997 481.3 1627.2999999999997 472.7L1637.7999999999997 483.2C1624.8 495 1611.9 500 1592.3 500C1562 500 1543.3 482.8 1543.3 456.8C1543.3 444.6 1547.2 435.1 1554.8999999999999 428.2C1561.4999999999998 422.4 1570.9999999999998 418.5 1583.1 416.6L1601 413.8C1612.2 412.1 1616.1 410.8 1621 406.5C1625.9 402.2 1628.3 395.3 1628.3 387.4C1628.2 369.5 1614.5 359 1592.1 359zM1717.5 500C1702.2 500 1688.7 494.4 1678.3 484.1C1664 469.7 1664 454.6 1664 422.2S1664 374.7 1678.4 360.3C1688.7 350 1702.3000000000002 344.4 1717.6000000000001 344.4C1732.9 344.4 1746.5000000000002 350 1756.8000000000002 360.3C1771.2000000000003 374.7000000000001 1771.2000000000003 389.7000000000001 1771.2000000000003 422.2000000000001S1771.2000000000003 469.7 1756.8000000000002 484.1C1746.4 494.4 1732.8 500 1717.5 500zM1744 369.9C1737.3 363 1727.6 358.9 1717.5 358.9C1707.4 358.9 1697.7 363 1691.1 369.9C1681.3999999999999 379.8 1680.3 390.1 1680.3 422.1C1680.3 454.1 1681.3999999999999 464.4 1691.1 474.3C1697.8 481.2 1707.3999999999999 485.3 1717.5 485.3C1727.6 485.3 1737.3 481.2 1744 474.3C1753.7 464.4 1754.7 454.1 1754.7 422.1C1754.8 390.1 1753.7 379.8 1744 369.9zM1813.9 468.4L1895.2 345.6H1910.7V498.7H1894.3V376.4L1813 498.7H1797.5V345.6H1813.9V468.4z" />
    <glyph glyph-name="logo-grundig"
      unicode="&#xE01A;"
      horiz-adv-x="4600" d=" M1889.7 105.8H1749.3C1710.1 106.8 1689.3999999999999 136.3 1688.3999999999999 166.7V497.2H1489.8V166.5C1488.8 56.5 1559.6 3.5 1648.8 2.5H2088.3V497.2H1889.7000000000005V105.8z M2644.3 499.8H2204.6000000000004V2.6H2406V394.2H2546.4C2583.6 392.8 2607.3 366.3 2607.3 333.3V2.6H2805.9V336C2805.1 448.8 2737.2 499 2644.3 499.8z M3665.1 497.2H3865.7V5.1H3665.1V497.2z M1301.9 222.1C1424.1000000000001 274.7000000000001 1406.3000000000002 492.9 1214.5 497.2H777.6V2.5000000000001H976.2V174.4H1084.8C1117 174.4 1140.6 162.7 1156.3999999999999 129.5L1214.6999999999998 2.5H1421.1999999999998C1358.9 145 1355.9 183.5 1301.9 222.1zM1105.9 280.3H978.9V394.2H1106.1000000000001C1196.7 389.8 1196.7 280.7 1105.9 280.3z M3303.7 497.2H2922.3999999999996V2.5H3300.9999999999995C3675.4 3.6 3672.4 487.3 3303.7 497.2zM3208.2 105.8H3120.7999999999997V394.2H3208.2C3421.6 389.8 3421.6 106.8 3208.2 105.8z M462.5 105.8H367.2C152.2 106.8 152.2 390 372.5 394.2H608.1V500H269.3C-92.8 502 -86.9 0.8 269.3 0H658.5V277.7H462.5V105.8L462.5 105.8z M4398.5 277.7V105.8H4308.5C4092.9 106.8 4092.9 390 4313.8 394.2H4546.8V500H4207.8C3844.9 502 3850.8 0.8 4207.8 2.8H4599.6V277.9H4398.6V277.7z" />
    <glyph glyph-name="logo-grundig_"
      unicode="&#xE01B;"
      horiz-adv-x="4470.996" d=" M220.711 1.327C92.812 18.434 5.811 113.207 0.266 241.403C-4.86 359.64 64.475 458.338 174.425 489.386C210.774 499.625 215.088 499.825 410.165 499.865L590.428 499.878V447.628V395.365L479.88 395.339C419.089 395.3 359.84 394.4700000000001 348.2340000000001 393.466C303.0350000000001 389.575 270.9300000000001 376.2630000000001 243.5020000000001 350.096C197.963 306.591 186.9380000000001 239.679 215.737 181.539C220.453 172.02 227.098 163.288 239.123 150.81C253.889 135.52 258.238 132.271 275.009 123.914C308.214 107.375 329.704 104.117 401.449 104.965L448.238 105.506L448.709 191.485L449.185 277.495H544.578H639.966V138.75V0L433.091 0.297C319.317 0.463 223.75 0.917 220.711 1.327L220.711 1.327zM3560.921 249.961V499.878H3659.082H3757.269V249.961V0H3659.082H3560.921V249.961zM755.558 249.961V497.996H970.681C1116.246 497.996 1191.152 497.319 1202.325 495.896C1267.928 487.53 1313.428 451.479 1332.748 392.504C1336.8310000000001 379.991 1337.874 372.874 1338.5900000000001 352.536C1339.6470000000002 322.4790000000001 1336.0400000000002 304.4600000000001 1323.9330000000002 279.419C1314.6500000000003 260.208 1295.0290000000002 238.586 1277.2580000000003 227.959L1265.9630000000002 221.201L1276.756 212.144C1299.9540000000002 192.68 1314.161 166.701 1347.0130000000001 83.621C1357.5570000000002 56.996 1369.15 28.031 1372.7830000000001 19.308C1376.4150000000002 10.602 1379.371 3.144 1379.371 2.681C1379.371 2.28 1334.539 1.921 1279.712 1.921H1180.049L1150.927 67.03C1134.9029999999998 102.8149999999999 1119.176 136.443 1115.975 141.701C1108.4389999999999 154.231 1096.899 164.265 1084.128 169.574C1074.339 173.643 1071.0339999999999 173.862 1010.1299999999998 174.482L946.3699999999998 175.163V88.5289999999999V1.9209999999999H850.9639999999999H755.558V249.961L755.558 249.961zM1101.034 285.139C1109.5870000000002 287.881 1115.6650000000002 291.444 1122.428 297.749C1135.9850000000001 310.385 1139.8490000000002 318.942 1139.9060000000002 336.4290000000001C1139.9320000000002 348.9160000000001 1139.2250000000001 351.9820000000001 1134.2520000000002 361.146C1127.1480000000001 374.201 1114.3340000000003 384.627 1098.6630000000002 390.024C1087.4640000000002 393.914 1082.5560000000003 394.1980000000001 1018.3860000000002 394.919L950.0460000000002 395.6910000000001V338.4890000000001V281.3180000000001H1019.5650000000002C1084.032 281.319 1089.974 281.616 1101.034 285.139L1101.034 285.139zM1571.051 4.663C1515.299 13.613 1475.4009999999998 46.64 1457.53 98.536C1447.348 128.148 1447.269 129.772 1447.269 321.462V497.996H1544.504H1641.752V326.317C1641.752 178.141 1642.132 153.332 1644.542 144.905C1648.245 131.99 1662.2079999999999 116.105 1675.197 110.028L1684.877 105.5049999999999H1761.02H1837.158L1837.634 301.762L1838.092 497.996H1933.485H2028.891V249.961V1.9209999999999L1807.346 2.1129999999999C1640.085 2.218 1582.18 2.873 1571.051 4.663L1571.051 4.663zM2144.482 250.947V500L2375.201 499.458L2605.929 498.916L2620.599 494.686C2666.4790000000003 481.386 2699.61 451.452 2713.9840000000004 410.222C2725.3970000000004 377.511 2724.934 386.824 2725.6160000000004 185.816L2726.2620000000006 1.894H2630.7910000000006H2535.2930000000006V167.898C2535.2930000000006 335.237 2534.8040000000005 349.2440000000001 2528.5950000000007 361.7000000000001C2524.011000000001 370.851 2512.982000000001 382.129 2503.9520000000007 386.8880000000001C2490.1730000000007 394.088 2476.1310000000008 395.337 2405.4690000000005 395.3490000000001L2338.9800000000005 395.363V198.643V1.919H2241.7320000000004H2144.4840000000004V250.947L2144.482 250.947zM2841.695 249.961V497.996H3028.384C3219.5190000000002 497.996 3238.277 497.398 3273.695 490.32C3383.7850000000003 468.293 3461.983 388.478 3477.4390000000003 282.24C3482.8880000000004 244.646 3479.7970000000005 207.324 3468.271 171.583C3437.358 75.867 3356.828 15.562 3244.5730000000003 3.956C3231.552 2.602 3157.4240000000004 1.8939999999999 3033.1270000000004 1.8939999999999H2841.6950000000006V249.961L2841.695 249.961zM3141.696 106.51C3199.723 113.285 3245.2799999999997 146.146 3264.4739999999997 195.065C3284.296 245.634 3273.966 304.491 3238.2769999999996 344.428C3217.7819999999997 367.394 3190.7719999999995 382.755 3158.2349999999997 390.025C3144.7879999999996 393.02 3131.3659999999995 393.915 3087.084 394.7970000000001L3032.533 395.867V250.259V104.554H3078.841C3104.33 104.605 3132.588 105.479 3141.696 106.51L3141.696 106.51zM4050.058 4.008C3948.587 15.072 3870.258 77.168 3840.131 170.447C3830.639 199.701 3827.984 217.839 3827.984 252.82C3827.984 286.645 3830.535 304.948 3838.988 331.831C3863.639 409.977 3922.53 467.018 4001.795 489.386C4038.121 499.625 4042.436 499.825 4237.5 499.865L4417.763 499.878V447.628V395.365L4308.137 395.351C4193.655 395.338 4166.0509999999995 394.0370000000001 4141.652999999999 387.675C4122.616999999999 382.702 4096.724999999999 369.796 4082.8669999999993 358.396C4048.155999999999 329.801 4030.289999999999 291.624 4030.428999999999 246.233C4030.586999999999 193.083 4058.3559999999993 147.369 4104.776999999999 123.695C4135.628999999999 107.995 4162.122999999999 104.039 4230.645999999999 104.938L4275.574999999999 105.505L4276.036999999999 191.484L4276.526999999999 277.506H4373.7609999999995H4470.996999999999V139.718V1.92L4267.793999999999 2.165C4156.017 2.279 4058.057 3.144 4050.058 4.008L4050.058 4.008z" />
    <glyph glyph-name="mail"
      unicode="&#xE01C;"
      horiz-adv-x="870.543" d=" M797.149 0H73.395C38.419 0 0 38.401 0 73.394V403.265C0 407.808 0 414.312 2.217 421.127C3.152 423.949 4.379 426.568 5.881 428.969C0.879 440.933 -1.044 453.831 1.96 465.758C3.994 473.801 13.558 500 51.702 500H817.046C855.2270000000001 500 864.791 473.764 866.806 465.721C869.664 454.344 868.052 442.087 863.5450000000001 430.6C865.561 427.76 867.172 424.572 868.3090000000001 421.073C870.5430000000001 414.239 870.5430000000001 407.735 870.5430000000001 403.43V73.394C870.543 38.401 832.143 0 797.149 0zM56.319 375.82L56.282 73.394C57.308 68.411 68.411 57.235 73.98 56.246L796.746 56.283C802.352 57.492 813.235 68.484 814.298 74.091L814.261 375.82C733.611 333.865 501.667 213 488.366 206.039C466.893 194.79 450.588 193.837 434.355 193.837S401.781 194.79 380.29 206.076C366.989 213.038 134.422 334.9460000000001 56.319 375.82zM61.943 443.717C63.72 441.409 65.699 439.43 67.458 438.478L184.383 375.655C279.891 324.338 399.601 260.012 406.654 256.2390000000001C420.138 249.02 448.646 249.02 461.983 256.202C473.416 262.3400000000001 779.231 426.642 801.2529999999999 438.497C802.9759999999999 439.413 804.9169999999999 441.318 806.6399999999999 443.535L61.943 443.717z" />
    <glyph glyph-name="overlay-close"
      unicode="&#xE01D;"
      horiz-adv-x="500" d=" M480.584 0L250 230.584L19.416 0L0 19.416L230.578 250L0 480.577L19.416 500L250 269.4220000000001L480.584 500L500 480.584L269.416 250L500 19.416z" />
    <glyph glyph-name="pdf"
      unicode="&#xE01E;"
      horiz-adv-x="500" d=" M495.9 189.5C483.8 209.7 451.8 217.7 403.9 217.7C387.9 217.7 371.9 213.599 351.9 213.599C291.701 243.499 267.9 298.299 251.9 342.599V346.599C267.9 399.099 279.9 463.499 251.9 491.799C213.2 515 192 483.7 188 467.6C172 411.2 180 382.9 196 334.6C184 298.3 172.1 258 152.1 217.7C136.1 189.4 124.1 165.3 112.1 145.099C96.1 137.099 84.1 129.099 76.1 124.999C28.2 96.7 4.2 60.5 0.2 40.3C0.2 32.7 -5.3 1.401 40.2 0C72.2 -0.9 122.899 54.2 149.5 122.6C153.5 126.6 275.8 161 343.8 169C384.199 139.6 416.5 133.8 448.5 133.2C514.8 132 500 181.4 495.9 189.5zM28.2 36.3C32.2 48.401 103.599 112.901 103.5 112.901C86.1 65.1 52.1 40.3 28.2 36.3zM221.1 476.4C235.9 479.3 244.6 406.6 220 367.5C212.1 413.8 213.1 445.5 221.1 476.4zM160.1 157.2C189.9 200.7 218.9 290.9 225.201 313.3C241.201 277 271.701 220.401 311.6 195.7C251 190.2 160.1 157.2 160.1 157.2zM383.3 186C384.199 186.2 416.8 195.6 441.199 189.2C465.499 182.8 471.999 165.3 471.999 165.3C410 151.7 383.3 186 383.3 186z" />
    <glyph glyph-name="play"
      unicode="&#xE01F;"
      horiz-adv-x="500.002" d=" M19.23 0C15.712 0 12.207 0.964 9.121 2.867C3.449 6.373 0 12.57 0 19.23V480.771C0 487.438 3.449 493.623 9.121 497.128C14.786 500.633 21.86 500.946 27.832 497.973L489.372 267.202C495.883 263.9410000000001 500.002 257.2860000000001 500.002 250.0000000000001C500.002 242.713 495.883 236.0530000000001 489.372 232.7970000000001L27.832 2.027C25.115 0.676 22.173 0 19.23 0zM38.462 449.652V50.342L437.765 250L38.462 449.652z" />
    <glyph glyph-name="products-divide-and-cook"
      unicode="&#xE020;"
      horiz-adv-x="500.02000080003194" d=" M250.0530021200848 373.5039401576064C181.9622784911397 373.4849393975759 126.5330613224529 318.0747229889196 126.5330613224529 249.9749989999601C126.5330613224529 181.9032761310453 181.9622784911397 126.5120604824194 250.0720028801152 126.5120604824194C283.0503220128805 126.5120604824194 314.0565622624905 139.3365734629386 337.38749549982 162.6875075003001C360.7184287371495 185.9994399775992 373.5619424776991 217.0056802272092 373.5619424776991 249.9749989999601C373.5629425177007 318.0747229889196 318.1717268690748 373.4849393975759 250.0530021200848 373.5039401576064M332.6223048921957 174.1709668386736C312.3714948597943 152.0840833633346 284.754390175607 139.2615704628186 254.8381935277411 137.9975199007961C253.2301292051682 137.9215168606745 251.6040641625665 137.9215168606745 249.994999799992 137.9215168606745C189.7625905036201 137.9215168606745 140.5916236649466 185.0444017760711 138.0655226209048 245.2108084323374C135.3964158566342 306.9452778111126 183.5133405336213 359.3603744149767 245.2678107124285 362.0014800592025C246.8758750350014 362.0594823792952 248.4829393175727 362.097483899356 250.0720028801152 362.097483899356C310.2854114164566 362.097483899356 359.4753790151606 314.9655986239451 362.0584823392935 254.7701908076324C363.3235329413177 224.8539941597665 352.8911156446258 196.2198487939518 332.6223048921957 174.1709668386736 M250.0720028801152 358.0963238529542C248.5409416376655 358.0963238529542 246.9898795951838 358.0773230929238 245.4398175927037 357.9913196527862C185.8764350574023 355.446217848714 139.5095803832153 304.916196647866 142.0556822272891 245.3808152326094C144.5057802312092 187.3414936597465 191.9156766270651 141.9016760670428 249.994999799992 141.9016760670428C251.5450618024721 141.9016760670428 253.1161246449858 141.9406776271052 254.6651866074643 142.0166806672268C283.5093403736149 143.2027281091245 310.1514060562423 155.6052242089685 329.6761870474819 176.8520740829635C349.2169686787472 198.1339253570144 359.2843713748549 225.743029721189 358.0403216128645 254.5881835273412C355.5722228889155 312.6395055802232 308.1233249329973 358.0963238529542 250.0720028801152 358.0963238529542M153.3101324052962 243.7067482699308C149.3489739589584 243.7067482699308 146.1328453138126 246.921876875075 146.1328453138126 250.8850354014161C146.1328453138126 254.846193847754 149.3489739589584 258.0623224928998 153.3101324052962 258.0623224928998C157.2622904916197 258.0623224928998 160.4784191367655 254.8471938877555 160.4784191367655 250.8850354014161C160.4784191367655 246.921876875075 157.2622904916197 243.7067482699308 153.3101324052962 243.7067482699308M169.5127805112204 226.663066522661L162.3444937797512 231.5052602104084C164.6985879435177 237.247489899596 166.0096403856154 243.5157406296252 166.0096403856154 250.10000400016C166.0096403856154 256.5312612504501 164.7565902636105 262.6455058202328 162.497499899996 268.2727309092363L169.7127885115404 273.1529261170447C172.7849113964559 266.070642825713 174.5169806792272 258.2913316532662 174.5169806792272 250.0990039601584C174.5179807192288 241.7556702268091 172.7279091163646 233.8213528541142 169.5127805112204 226.663066522661M249.3829753190128 352.4500980039202C253.3451338053522 352.4500980039202 256.5602624104964 349.2539701588064 256.5602624104964 345.2728109124365C256.5602624104964 341.320652826113 253.3451338053522 338.1055242209689 249.3829753190128 338.1055242209689C245.4218168726749 338.1055242209689 242.2056882275291 341.320652826113 242.2056882275291 345.2728109124365C242.2056882275291 349.2539701588064 245.4218168726749 352.4500980039202 249.3829753190128 352.4500980039202M232.0132805312213 335.1184047361895C237.7645105804232 332.7743109724389 244.0427617104684 331.4532581303253 250.6460258410336 331.4532581303253C257.0382815312613 331.4532581303253 263.182527301092 332.7073082923318 268.7917516700668 334.9463978559143L273.6719468778751 327.7501100044002C266.6096643865755 324.6779871194848 258.8383535341414 322.9559182367295 250.6470258810352 322.9559182367295C242.2636905476219 322.9559182367295 234.3303732149286 324.7359894395776 227.1810872434897 327.9511180447218L232.0132805312213 335.1184047361895zM183.5903436137445 217.1216848673947L176.4320572822913 221.9828793151726C180.3172126885075 230.3582143285732 182.4712988519541 239.715588623545 182.4712988519541 249.5539821592864C182.4712988519541 259.564382575303 180.2412096483859 269.0577623104924 176.2420496819873 277.5551022040882L183.3713348533941 282.3782951318053C188.2515300612024 272.5029001160047 190.9976399055962 261.3344533781351 190.9976399055962 249.5539821592864C190.9966398655946 237.9275171006841 188.327533101324 226.9500780031202 183.5903436137445 217.1216848673947M250.7040281611264 147.0308812352495C246.741869674787 147.0308812352495 243.5447417896716 150.2090083603345 243.5447417896716 154.1891675667027S246.7408696347854 161.347453898156 250.7040281611264 161.347453898156C254.6651866074643 161.347453898156 257.8813152526101 158.169326773071 257.8813152526101 154.1891675667027S254.6651866074643 147.0308812352495 250.7040281611264 147.0308812352495M268.0827233089323 164.8695947837914C262.3594943797752 167.2056882275292 256.0622424896996 168.5067402696108 249.4779791191648 168.5067402696108C243.0667226689068 168.5067402696108 236.9414776591064 167.2816912676507 231.3142525701028 165.0246009840394L226.4530581223249 172.2198887955518C233.5063402536102 175.3220128805152 241.2866514660587 177.0440817632705 249.4779791191648 177.0440817632705C257.8423136925477 177.0440817632705 265.7666306652266 175.2430097203889 272.9439177567102 172.0278811152446L268.0827233089323 164.8695947837914zM277.6151046041842 178.9561582463299C269.2317692707709 182.8233129325174 259.8903956158246 185.0054002160087 250.0340013600544 185.0054002160087C240.0236009440378 185.0054002160087 230.5302212088484 182.7473098923957 222.0228809152366 178.7651506060242L217.1796871874875 185.8864354574183C227.0940837633505 190.7846313852554 238.2235289411577 193.503740149606 250.0340013600544 193.503740149606C261.6704668186728 193.503740149606 272.6759070362815 190.8606344253771 282.4762990519621 186.0774430977239L277.6151046041842 178.9561582463299zM229.8791951678067 237.3054922196888C229.8791951678067 248.7319492779711 250.6270250810033 285.1824072962919 250.6270250810033 285.1824072962919S271.3558542341694 248.7309492379696 271.3558542341694 237.3054922196888C271.3558542341694 225.8600344013761 262.0734829393176 216.5856634265371 250.6270250810033 216.5856634265371C239.1625665026601 216.5866634665387 229.8791951678067 225.8600344013761 229.8791951678067 237.3054922196888M250.0720028801152 306.4672586903477C238.4535381415257 306.4672586903477 227.448097923917 309.1373654946198 217.6297051882075 313.8745549821993L222.4908996359854 321.0328413136526C230.8842353694148 317.1476859074363 240.2146085843433 314.9745989839594 250.0720028801152 314.9745989839594C260.0814032561303 314.9745989839594 269.5937837513501 317.2336893475739 278.093123724949 321.2048481939278L282.9163166526661 314.1135645425817C273.0209208368335 309.2133685347415 261.8624744989799 306.4672586903477 250.0720028801152 306.4672586903477M314.1535661426457 217.1216848673947C309.2723708948358 227.0460818432738 306.5352614104565 238.1845273810953 306.5352614104565 249.9659986399456C306.5352614104565 261.602464098564 309.1953678147126 272.5989039561583 313.9425577023081 282.3792951718069L321.1008440337614 277.5561022440898C317.2146885875435 269.1727669106765 315.0526021040842 259.8223928957159 315.0526021040842 249.9659986399456C315.0526021040842 239.9465978639146 317.2906916276651 230.4322172886916 321.291851674067 221.9828793151727L314.1535661426457 217.1216848673947zM345.5798231929277 257.5453018120725C349.5419816792671 257.5453018120725 352.7771110844434 254.3591743669747 352.7771110844434 250.4160166406657C352.7771110844434 246.4358574342974 349.5419816792671 243.2187287491501 345.5798231929277 243.2187287491501S338.4215368614744 246.4358574342975 338.4215368614744 250.4160166406657C338.4215368614745 254.3591743669747 341.6176647065882 257.5453018120725 345.5798231929277 257.5453018120725M335.1864074562983 268.0147205888236C332.8323132925317 262.2914916596664 331.551262050482 256.0042401696068 331.551262050482 249.4109764390576C331.551262050482 243.0097203888156 332.7753110124405 236.8744749789992 335.0154006160247 231.2372494899796L327.8381135245409 226.3950558022322C324.7359894395776 233.4183367334694 323.0149205968239 241.2006480259211 323.0149205968239 249.4109764390576C323.0149205968239 257.7843113724549 324.794991799672 265.6986279451179 328.0301212048482 272.8759150366015L335.1864074562983 268.0147205888236z M455.5572222888915 500H44.423776951078C19.9917996719869 500 0 480.0082003280131 0 455.576223048922V44.4407776311052C0 19.9807992319693 19.9917996719869 1e-13 44.423776951078 1e-13H455.5572222888915C479.9991999679987 1e-13 500.0200008000319 19.9807992319693 500.0200008000319 44.4407776311053V455.576223048922C500.0200008000319 480.0082003280131 479.9991999679987 500 455.5572222888915 500M250.0720028801152 118.4747389895596C177.4260970438818 118.4747389895596 118.5327413096524 177.348093923757 118.5327413096524 249.9749989999601C118.5327413096524 322.6109044361775 177.4260970438818 381.4852594103765 250.0330013200528 381.5042601704069C322.6879075163007 381.4852594103765 381.58126325053 322.6299051962079 381.5622624904996 249.9749989999601C381.5822632905316 177.3870954838193 322.6889075563022 118.4747389895596 250.0720028801152 118.4747389895596" />
    <glyph glyph-name="rss"
      unicode="&#xE021;"
      horiz-adv-x="500" d=" M300 110H260C260 192.715 192.715 260 110 260V300C214.766 300 300 214.766 300 110z M400 110H360C360 247.852 247.852 360 110 360V400C269.902 400 400 269.902 400 110z M180 150C180 133.418 166.582 120 150 120S120 133.418 120 150C120 166.562 133.418 180 150 180S180 166.562 180 150 M420 0H80C35.889 0 0 35.879 0 80V420C0 464.111 35.889 500 80 500H420C464.121 500 500 464.111 500 420V80C500 35.879 464.121 0 420 0zM80 460C57.939 460 40 442.061 40 420V80C40 57.949 57.939 40 80 40H420C442.051 40 460 57.949 460 80V420C460 442.061 442.051 460 420 460H80z" />
    <glyph glyph-name="share"
      unicode="&#xE022;"
      horiz-adv-x="433.895" d=" M354.268 340.738C310.368 340.738 274.64 376.4650000000001 274.64 420.373C274.64 464.28 310.367 500 354.268 500C398.167 500 433.895 464.28 433.895 420.373C433.895 376.4650000000001 398.167 340.738 354.268 340.738zM354.268 461.539C331.566 461.539 313.102 443.074 313.102 420.373S331.566 379.199 354.268 379.199C376.969 379.199 395.433 397.6720000000001 395.433 420.3730000000001S376.969 461.539 354.268 461.539z M79.627 172.296C35.72 172.296 0 208.023 0 251.923C0 295.823 35.72 331.543 79.627 331.543C123.535 331.543 159.262 295.823 159.262 251.923C159.262 208.023 123.535 172.296 79.627 172.296zM79.627 293.082C56.926 293.082 38.461 274.617 38.461 251.923C38.461 229.222 56.926 210.758 79.627 210.758S120.801 229.222 120.801 251.923C120.801 274.617 102.328 293.082 79.627 293.082z M354.268 0C310.368 0 274.64 35.728 274.64 79.627C274.64 123.527 310.368 159.255 354.268 159.255C398.167 159.255 433.895 123.527 433.895 79.627C433.895 35.728 398.167 0 354.268 0zM354.268 120.793C331.566 120.793 313.102 102.329 313.102 79.627C313.102 56.926 331.566 38.462 354.268 38.462C376.969 38.462 395.433 56.926 395.433 79.627C395.433 102.329 376.969 120.793 354.268 120.793z M302.945 91.677C299.429 91.677 295.883 92.639 292.698 94.637L120.23 203.351C111.246 209.015 108.548 220.884 114.212 229.883C119.884 238.867 131.753 241.541 140.737 235.893L313.219 127.179C322.203 121.515 324.893 109.646 319.229 100.647C315.564 94.847 309.33 91.677 302.945 91.677z M129.297 265.851C122.664 265.851 116.219 269.284 112.651 275.428C107.317 284.616 110.442 296.387 119.63 301.713L293.811 402.757C302.975 408.113 314.754 404.966 320.088 395.778C325.421 386.5900000000001 322.296 374.82 313.102 369.4940000000001L138.936 268.449C135.893 266.685 132.572 265.851 129.297 265.851z" />
    <glyph glyph-name="social-facebook"
      unicode="&#xE023;"
      horiz-adv-x="278" d=" M277.8 413.1H198.5C189.1 413.1 178.6 400.7 178.6 384.2V326.9H277.8V245.2H178.6V0H84.9V245.3H0V327H84.9V375C84.9 443.9 132.8 500 198.4 500H277.7V413.1z" />
    <glyph glyph-name="social-instagram"
      unicode="&#xE024;"
      horiz-adv-x="500" d=" M401.1 250C401.1 166.5 333.4000000000001 98.8 249.9000000000001 98.8C166.4 98.8 98.7000000000001 166.5 98.7000000000001 250C98.7000000000001 259.9 99.7000000000001 269.6 101.5 279H0V78.1C0 35 35 0 78.1 0H421.8C464.9 0 499.9 35 499.9 78.1V279.1H398.3C400.1 269.7 401.1 260 401.1 250zM421.8 500H78.1C35 500 0 465 0 421.8V337.2H126.5C153.9 375.9 199 401.2 250 401.2C301 401.2 346.1 375.9 373.4 337.3H500V421.8C500 465 465 500 421.8 500zM460 403.5C460 395.9 453.7 389.6 446.1 389.6H404.2000000000001C396.5000000000001 389.6 390.3000000000001 395.9 390.3000000000001 403.5V445.4C390.3000000000001 453.1 396.6000000000001 459.3 404.2000000000001 459.3H446.1C453.8 459.3 460 453 460 445.4V403.5zM343 250C343 301.3 301.4 343 250 343S157 301.3 157 250C157 198.6 198.6 157 250 157S343 198.6 343 250z" />
    <glyph glyph-name="social-twitter"
      unicode="&#xE025;"
      horiz-adv-x="601" d=" M601 440.9C578.9 430.8 555.1 424 530.2 421C555.7 436.7 575.2 461.4 584.4000000000001 490.9C560.6000000000001 476.4 534.2 465.9 506.1000000000001 460.2C483.6 484.7 451.6 500 416.1 500C348 500 292.8 443.5 292.8 373.8C292.8 363.9 293.9000000000001 354.3 296 345C193.5 350.3 102.6 400.6 41.8 476.9C31.2 458.3 25.1 436.6 25.1 413.5C25.1 369.7 46.9 331.1 80 308.5C59.8 309.2 40.8 314.8 24.2 324.3C24.2 323.8 24.2 323.3 24.2 322.7000000000001C24.2 261.5 66.7 210.5 123.1 198.9C112.7 196.0000000000001 101.9 194.5000000000001 90.6 194.5000000000001C82.7 194.5000000000001 75 195.3000000000001 67.4 196.7000000000001C83.1 146.6 128.6 110.1 182.6 109.0000000000001C140.4 75.1000000000001 87.3 54.9 29.5 54.9C19.6 54.9 9.8 55.5000000000001 0.1 56.7000000000001C54.6 20.8 119.4 0 189 0C415.8 0 539.8 192.4 539.8 359.2C539.8 364.6 539.6999999999999 370.1 539.4 375.5C563.6 393.3 584.5 415.5 601 440.9z" />
    <glyph glyph-name="social-youtube"
      unicode="&#xE026;"
      horiz-adv-x="700" d=" M687.1 419.5C678.6 457.7 648.2 485.8 611.5 490C524.8 500 437.1 500 349.7 500C262.3 500 174.6 500 87.9 490C51.3 485.8 20.9 457.7 12.3 419.5C0.1 365.3 0 305.9 0 250S0 134.8 12.2 80.4C20.8 42.3 51.1 14.2 87.8 10C174.5 0 262.3 0 349.6 0C437 -0.1 524.7 0 611.4000000000001 10C648.0000000000001 14.2 678.4000000000001 42.3 687.0000000000001 80.4C699.2000000000002 134.7 699.3000000000001 194 699.3000000000001 250S699.3 365.3 687.1 419.5zM281.6 151.8V348.5L470.4 250.1L281.6 151.8z" />
    <glyph glyph-name="sorting"
      unicode="&#xE027;"
      horiz-adv-x="643" d=" M71.4 428.6H0V500H71.4V428.6zM642.9 500H142.9V428.6H642.9V500zM71.4 285.7H0V214.3H71.4V285.7zM642.9 285.7H142.9V214.3H642.9V285.7zM71.4 71.4H0V0H71.4V71.4zM642.9 71.4H142.9V0H642.9V71.4z" />
    <glyph glyph-name="star-rating-outline"
      unicode="&#xE028;"
      horiz-adv-x="500" d=" M98.6 0C94.9 0 91.2 1.2 88.1 3.4C81.8 8 79.2 16.1 81.7 23.5L138.3 193.7L6.8 297.2C0.8 301.9 -1.5 309.9 1 317.1C3.5 324.3 10.3 329.1 17.9 329.1H176.9L233.2 489.2C238.3 503.5 261.9 503.5 266.9 489.2L323.3 329.1H482.1999999999999C489.8 329.1 496.5999999999999 324.3 499.0999999999999 317.1C501.5999999999999 309.9 499.1999999999999 301.9 493.1999999999999 297.2L361.7 193.7L418.3 23.5C420.7 16.1 418.2 8 411.9000000000001 3.4C405.6 -1.1 397.1 -1.2 390.8 3.4L250 107L109.2 3.5C106 1.2 102.3 0 98.6 0zM250 147.1C253.7 147.1 257.4 145.9 260.6 143.6L366.7000000000001 65.6L323.9000000000001 194.3C321.5000000000001 201.5 323.9000000000001 209.4 329.8 214.1L430.5 293.4000000000001H310.6C303 293.4000000000001 296.3 298.2000000000001 293.8 305.3000000000001L250 429.5L206.3 305.3C203.8 298.2000000000001 197 293.4 189.5 293.4H69.5L170.2 214.1C176.1 209.4 178.5 201.5 176.1 194.3L133.3 65.6L239.4 143.6C242.6 146 246.3 147.1 250 147.1z" />
    <glyph glyph-name="star-rating"
      unicode="&#xE029;"
      horiz-adv-x="500" d=" M98.6 0C94.9 0 91.2 1.2 88.1 3.4C81.8 8 79.2 16.1 81.7 23.5L138.3 193.7L6.8 297.2C0.8 301.9 -1.5 309.9 1 317.1C3.5 324.3 10.3 329.1 17.9 329.1H176.9L233.2 489.2C238.3 503.5 261.9 503.5 266.9 489.2L323.3 329.1H482.1999999999999C489.8 329.1 496.5999999999999 324.3 499.0999999999999 317.1C501.5999999999999 309.9 499.1999999999999 301.9 493.1999999999999 297.2L361.7 193.7L418.3 23.5C420.7 16.1 418.2 8 411.9000000000001 3.4C405.6 -1.1 397.1 -1.2 390.8 3.4L250 107L109.2 3.5C106 1.2 102.3 0 98.6 0z" />
    <glyph glyph-name="telephone"
      unicode="&#xE02A;"
      horiz-adv-x="499.953" d=" M104.143 0C81.417 0 63.237 6.154 51.586 17.829C48.791 20.624 45.773 23.489 42.684 26.426C23.106 45.03 -1.264 68.19 0.051 99.829C0.955 121.603 13.769 142.1330000000001 39.242 162.639C68.697 186.292 92.175 197.309 113.103 197.309C139.892 197.309 156.864 180.091 173.283 163.4140000000001L178.286 158.3630000000001C185.52 158.4340000000001 208.963 163.2020000000001 272.899 227.0920000000001C348.182 302.456 341.722 321.612 341.652 321.788L336.696 326.6500000000001C302.825 359.9810000000001 281.355 391.0220000000001 337.4 460.737C358.658 487.152 379.963 500 402.536 500C432.931 500 455.363 476.37 473.379 457.391C476.339 454.267 479.228 451.225 482.047 448.407C505.112 425.387 505.935 379.1960000000001 484.278 321.683C461.892 262.208 417.757 197.661 360.0440000000001 139.948C256.739 36.643 157.627 0 104.143 0zM113.104 161.229C101.171 161.229 83.919 152.233 61.851 134.499C45.209 121.11 36.541 108.942 36.095 98.326C35.461 83.057 52.502 66.85 67.535 52.569C70.858 49.422 74.089 46.3439999999999 77.095 43.338C81.711 38.734 91.565 36.08 104.143 36.08C154.421 36.08 245.16 76.082 334.536 165.457C388.702 219.623 429.878 279.626 450.525 334.402C468.283 381.591 466.098 413.349 456.538 422.885C453.508 425.939 450.4069999999999 429.203 447.213 432.539C433.26 447.2440000000001 417.428 463.92 402.536 463.92C391.731 463.92 379.282 455.241 365.541 438.129C325.469 388.309 335.428 378.525 361.994 352.3590000000001L367.208 347.226C401.15 313.131 348.276 251.485 298.409 201.582C227.179 130.387 196.443 122.142 179.519 122.142C169.019 122.142 159.764 125.853 152.764 132.853L147.585 138.091C133.022 152.867 124.249 161.229 113.104 161.229z" />
  </font>
</defs>
</svg>
